FFmpeg

FFmpeg

FFmpeg是一个开源免费跨平台的视频和音频流方案,属于自由软件,采用LGPL或GPL许可证(依据你选择的组件)。它提供了录制、转换以及流化音视频的完整解决方案。它包含了非常先进的音频/视频编解码库libavcodec,为了保证高可移植性和编解码质量,libavcodec里很多c  查看更多>>

ffmpeg -re -i 1080p.mp4 -c copy -f flv rtmp://aaaa.com/live/aa

如何指定1080p.mp4从30分钟开始

2016-01-07 •

  1. 我用ffmpeg -i 去看视频信息的时候,会显示如下信息 <coding-1 lang="as"> Stream #0:0: Video: h264 (High), yuv420p, 600x352, 281 kb/s, 29.97 tbr, 1k tbn, 59.94 tbc Stream #0:0(und): Video: h264 ...</coding>

2014-03-14 •

我现在只能用ffmpeg在控制台里将视频文件手动切成.m3u8和.ts文件,如何实现当服务器中有新的视频文件时,能调用ffmpeg的api,让其自动切片成.m3u8文件?

2013-11-21 •

如题哈:ffmpeg怎么用C语言调用完成录音
详述:我想用ffmpeg来提取音频特征,然后送入神经网络学习,但刚刚接触音频处理的东东,所以不懂怎么用C来调用ffmpeg,来完成从笔记本电脑的麦克风录音的功能......

2013-09-30 •

最近发现 服务器端 ffmpeg 截图失败,经过分析和测试 超多25M 的视频就截图失败。小视频截图都OK
服务器测试大视频结果如下:
[root@AY130527135215496204Z video]# ffmpeg -i 13801894211317.flv -y -f image2 -ss 8 -t 0.001 -s 350x240 test.jpg...

2013-09-26 •

通过阅读文档只知道ffmpeg的metadata 设置是 -metadata ,不知道读取是哪个参数?

2013-09-25 •

如题, 貌似pyffmpeg可以实现, 但这个模块好难安装, 而且没有相关的文档, 有知道的吗
谢谢了

2013-09-13 •

现在有个项目需要对上传的视频自动截图,我用了ffmpeg进行截图,但发现ffmpeg对视频截图的处理有些慢,同样的视频上传,我另外一个不用进行截图的可以连续上传,但是这个要用到截图的无法连续上传,是否有什么参数设置

2013-05-04 •

场景,需要两个avi视频拼接,而其
A.avi fps tbr tbn tbc皆为30
B.avi的参数为2, 想把B的参数增加,ffmpeg命令如何设置,一定要通过编程实现吗?

2013-04-11 •

利用ffmpeg获取视频的时长信息,但此时duration:N/A,不知道该如何处理

2013-04-09 •

热点用户排行

话题状态

最近活动:很久很久以前
该话题下的问题共被浏览 83494 次