rtmp

  1. 我用ffmpeg -i 去看视频信息的时候,会显示如下信息 <coding-1 lang="as"> Stream #0:0: Video: h264 (High), yuv420p, 600x352, 281 kb/s, 29.97 tbr, 1k tbn, 59.94 tbc Stream #0:0(und): Video: h264 ...</coding>

2014-03-14 •

准备做pc平台的视频直播,计划从FMS接收rtmp流,然后转化成flv文件,然后由边缘节点向外分发flv文件。现在的疑问是:rtmp转化成的flv文件,是分片保存,还是保存一个文件?如果分片保存的话,如何分片,是按什么来分?有没有了解的?麻烦解答一下。

2013-04-27 •

热点用户排行

话题状态

最近活动:很久很久以前
该话题下的问题共被浏览 2358 次